VeryCD-免费电影,3D电影下载,4k电影下载,高清蓝光下载,电影种子,迅雷下载,bt电影下载

种子首页 | 书啦小说 | 资源搜索 | 发布资源 | 加入收藏

首页 » 高清电影 » 密战 / 新永不消逝的电波【4K/国语】 Eternal Wave 2017 4K 2160p WEB-DL x264 AAC-SmY 中文(内嵌)4.48G

基本信息

共享用户: 电驴

发布时间: 2017/12/25 10:27:14

更新时间: 无更新

分享情况: 做种 0, 下载 0, 完成 53

健 康 度: 0

BT种子文件下载

使用磁力链接下载

点击此处下载种子

使用磁力链下载

Tracker信息

Announce:

https://verycd-cc.prox.fun:2710/announce

Scrape:

https://verycd-cc.prox.fun:2710/scrape

Announce list:
  • https://verycd-cc.prox.fun:2710/announce
  • http://tracker3.torrentino.com/announce
  • udp://9.rarbg.com:2710/announce
  • udp://tracker.torrenty.org:6969/announce
  • http://tracker.pimp4003.net/announce
  • udp://mgtracker.org:2710/announce
  • http://tracker.shuntv.net/announce.php
  • http://henbt.com:2710/announce
  • http://tracker.xfsub.com:6868/announce
  • udp://tracker.yify-torrents.com/announce
  • http://121.14.98.151:9090/announce
  • http://tracker.tvunderground.org.ru:3218/announce
  • http://siambit.org/announce.php
  • udp://tracker.leechers-paradise.org:6969/announce
  • udp://tracker.publichd.eu:80/announce
  • http://tracker1.torrentino.com/announce
  • http://tracker2.wasabii.com.tw:6969/announce
  • http://94.228.192.98/announce
  • http://anisaishuu.de:2710/announce
  • udp://tracker.openbittorrent.com:80/announce
  • udp://tracker.coppersurfer.tk:6969/announce
  • http://server1.9sheng.cn:6969/announce
  • http://bt.careland.com.cn:6969/announce
  • udp://eddie4.nl:6969/announce
  • udp://open.demonii.com:1337/announce
  • udp://tracker.istole.it:80/announce
  • udp://explodie.org:6969/announce
  • http://bt2.careland.com.cn:6969/announce
  • http://bt3.careland.com.cn:6969/announce
  • udp://shadowshq.yi.org:6969/announce
  • udp://shadowshq.eddie4.nl:6969/announce
  • http://trackers.ibzu.me/announce.php
  • http://tracker2.torrentino.com/announce
  • http://tracker.torrenty.org:6969/announce
  • udp://tracker.publicbt.com:80/announce
  • udp://10.rarbg.me:80/announce

支付宝扫一扫有红包

资源介绍

  



◎译  名 密战 / 新永不消逝的电波 
◎片  名 Eternal Wave 
◎年  代 2017 
◎产  地 中国大陆 
◎类  别 剧情/动作/战争 
◎语  言 汉语普通话/英语 
◎上映日期 2017-11-03(中国大陆) 
◎豆瓣评分 4.8/10 from 9,101 users 
◎豆瓣链接 https://movie.douban.com/subject/26316956/ 
◎片  长 100分钟 
◎导  演 钟少雄 Siu-hung Chung 
◎主  演 郭富城 Aaron Kwok 
赵丽颖 Liying Zhao 
张翰 Han Zhang 
任达华 Simon Yam 
张蓝心 Lanxin Zhang 
朱一龙 Yilong Zhu 
于晓光 Xiaoguang Yu 
刘玥心 Yuexin Liu 
奚美娟 Meijuan Xi 
寇振海 Zhenhai Kou 
由立平 Liping You 
安亚平 Yaping An 
孙耀威 Eric Suen 
曹操 Jonathan Kos-Read 
李滨 Bin Li 
涂黎曼 Liman Tu 
艾如 Ru Ai 


◎简  介 


淞沪会战后上海沦陷,地下工作者林翔(郭富城 饰)受命来到危机四伏的上海,重建惨遭敌人破坏的地下抗日战线。在这里他遇到单纯却很有正义感的兰芳(赵丽颖 饰),这对临时组成的“地下党夫妇”将在战火纷飞中,携手与日本侵略者及伪政府特务展开惊险刺激的生死较量…… 

General 
Format                         : MPEG-4 
Format profile                 : Base Media 
Codec ID                       : isom 
File size                      : 4.48 GiB 
Duration                       : 1h 42mn 
Overall bit rate               : 6 284 Kbps 
Writing application            : Lavf57.41.100 

Video 
ID                             : 1 
Format                         : AVC 
Format/Info                    : Advanced Video Codec 
Format profile                 : [email protected] 
Format settings, CABAC         : Yes 
Format settings, ReFrames      : 3 frames 
Codec ID                       : avc1 
Codec ID/Info                  : Advanced Video Coding 
Duration                       : 1h 42mn 
Bit rate                       : 6 214 Kbps 
Width                          : 3 840 pixels 
Height                         : 1 608 pixels 
Display aspect ratio           : 2.40:1 
Frame rate mode                : Variable 
Frame rate                     : 24.000 fps 
Minimum frame rate             : 23.810 fps 
Maximum frame rate             : 24.390 fps 
Color space                    : YUV 
Chroma subsampling             : 4:2:0 
Bit depth                      : 8 bits 
Scan type                      : Progressive 
Bits/(Pixel*Frame)             : 0.042 
Stream size                    : 4.43 GiB (99%) 
Writing library                : qiyi.com vtc-test 
Color range                    : Limited 
Color primaries                : BT.709 
Transfer characteristics       : BT.709 
Matrix coefficients            : BT.709 

Audio 
ID                             : 2 
Format                         : AAC 
Format/Info                    : Advanced Audio Codec 
Format profile                 : HE-AAC / LC 
Codec ID                       : 40 
Duration                       : 1h 42mn 
Bit rate mode                  : Constant 
Bit rate                       : 62.8 Kbps 
Channel(s)                     : 2 channels 
Channel positions              : Front: L R 
Sampling rate                  : 44.1 KHz / 22.05 KHz 
Compression mode               : Lossy 
Stream size                    : 45.9 MiB (1%) 
 
 
 

下载仅供测试,不作商业用途,下载后请于二十四小时内删除,否则产生的一切后果将由您自己承担!

个别电影下载慢的,下载不动的

强烈建议把下载好的种子离线到"百度网盘"在线观看,或者玩客云添加下载。

点击此处下载种子

  不会下载,点这里?

  加入收藏夹

电驴网提醒您,为了方便下次浏览本站,请将网站加入收藏夹!

文件信息 文件总数:4,文件总大小:4.5GB

 
  • Folder Eternal Wave 2017 4K 2160p WEB-DL x264 AAC-SmY-(SeeHD.So)
    • 视频文件 Eternal Wave 2017 4K 2160p WEB-DL x264 AAC-SmY.mp4(4.5GB)
    • 图片文件 影片截图.jpg(270KB)
    • 文本文件 Seehd.co必看资源.txt(777Bytes)
    • 信息文件 SeeHD联盟-申明(SeeHD.Co).nfo(466Bytes)
 

网友评论(0)

正在加载评论,请稍候......
发表我的看法(评论内容长度最多允许 1000 字)
评论内容
验证码